<?xml version="1.0" standalone="no"?>
<!DOCTYPE svg PUBLIC "-//W3C//DTD SVG 1.1//EN" "http://www.w3.org/Graphics/SVG/1.1/DTD/svg11.dtd" >
<svg xmlns="http://www.w3.org/2000/svg" xmlns:xlink="http://www.w3.org/1999/xlink" version="1.1">
<metadata></metadata>
<defs>
<font id="gilroyextrabold" horiz-adv-x="1275" >
<font-face units-per-em="2048" ascent="1638" descent="-410" />
<missing-glyph horiz-adv-x="512" />
<glyph unicode="&#xfb01;" horiz-adv-x="1167" d="M41 729v295h137q0 438 498 438q119 0 256 -28v-283q-147 16 -256 16q-96 0 -143.5 -30t-47.5 -113h570v-1024h-307v729h-263v-729h-307v729h-137z" />
<glyph unicode="&#xfb02;" horiz-adv-x="1167" d="M41 729v295h137q0 438 498 438q163 0 379 -49v-1413h-307v1194q-25 2 -72 2q-90 0 -140.5 -43t-50.5 -129h150v-295h-150v-729h-307v729h-137z" />
<glyph horiz-adv-x="0" />
<glyph horiz-adv-x="682" />
<glyph unicode=" "  horiz-adv-x="512" />
<glyph unicode="&#x09;" horiz-adv-x="512" />
<glyph unicode="&#xa0;" horiz-adv-x="512" />
<glyph unicode="!" horiz-adv-x="573" d="M92 166q0 79 57.5 136.5t137.5 57.5q79 0 136.5 -57t57.5 -137t-57.5 -137.5t-136.5 -57.5t-137 57.5t-58 137.5zM102 1024v410h369v-410l-61 -512h-246z" />
<glyph unicode="&#x22;" horiz-adv-x="819" d="M82 1434h287l-41 -492h-205zM451 1434h286l-41 -492h-204z" />
<glyph unicode="#" horiz-adv-x="1271" d="M41 410l37 225h217l29 164h-220l37 225h219l52 307h233l-51 -307h188l52 307h233l-51 -307h215l-37 -225h-215l-29 -164h217l-34 -225h-220l-51 -308h-233l51 308h-188l-52 -308h-233l51 308h-217zM528 635h189l28 164h-188z" />
<glyph unicode="$" horiz-adv-x="1122" d="M41 305l283 164q66 -150 194 -172v283q-4 2 -13 5t-13 5q-46 19 -78.5 33.5t-76.5 38.5t-74.5 47.5t-63.5 58.5t-53 72.5t-33 88t-13 107.5q0 96 34.5 175t93.5 130t133 81t157 38v178h144v-182q137 -18 241 -92t162 -205l-277 -162q-39 103 -126 133v-276 q17 -7 54.5 -22.5t58 -24t56 -25.5t56.5 -30.5t51 -35t47.5 -42t38 -49.5t31.5 -60t18.5 -70t7.5 -83q0 -187 -115 -301t-304 -136v-180h-144v178q-173 12 -297.5 98t-179.5 234zM428 1034q0 -31 19.5 -57t70.5 -55v215q-43 -10 -66.5 -37.5t-23.5 -65.5zM662 301 q92 24 92 107q0 37 -22 62.5t-70 49.5v-219z" />
<glyph unicode="%" horiz-adv-x="1605" d="M82 1114q0 146 102 247t254 101t253.5 -99.5t101.5 -248.5q0 -146 -102 -247t-253 -101q-152 0 -254 101t-102 247zM252 225l926 1024l135 -78l-926 -1026zM328 1114q0 -48 30.5 -80.5t77.5 -32.5q48 0 79.5 33.5t31.5 79.5q0 48 -31 80.5t-80 32.5q-47 0 -77.5 -32.5 t-30.5 -80.5zM813 324q0 146 102 247t254 101q151 0 253 -101t102 -247t-102 -247.5t-253 -101.5q-152 0 -254 101.5t-102 247.5zM1059 324q0 -48 30.5 -80.5t77.5 -32.5q48 0 79.5 33.5t31.5 79.5q0 48 -31 80t-80 32q-47 0 -77.5 -32t-30.5 -80z" />
<glyph unicode="&#x26;" horiz-adv-x="1388" d="M82 403q0 124 60 233t169 179q-59 100 -59 227q0 183 128.5 301.5t332.5 118.5q159 0 283 -79t188 -234l-281 -162q-60 156 -186 156q-61 0 -99 -34t-38 -87q0 -29 7.5 -54t26.5 -53t32.5 -44.5t45.5 -51.5l264 -293q44 100 68 226l274 -156q-46 -170 -131 -301l181 -201 l-256 -147l-127 137q-161 -113 -371 -113q-226 0 -369 116.5t-143 315.5zM414 438q0 -76 51.5 -122t155.5 -46q81 0 143 33l-262 283l-13 12q-75 -61 -75 -160z" />
<glyph unicode="'" horiz-adv-x="450" d="M82 1434h287l-41 -492h-205z" />
<glyph unicode="(" horiz-adv-x="655" d="M102 717q0 467 226 921h307q-225 -452 -225 -921q0 -470 225 -922h-307q-226 454 -226 922z" />
<glyph unicode=")" horiz-adv-x="655" d="M20 -205q226 454 226 922q0 467 -226 921h308q225 -452 225 -921q0 -470 -225 -922h-308z" />
<glyph unicode="*" horiz-adv-x="819" d="M102 1065v180l185 -18l-113 141l150 94l86 -174l86 174l149 -94l-113 -141l185 18v-180l-185 18l113 -141l-149 -94l-86 174l-86 -174l-150 94l113 141z" />
<glyph unicode="+" horiz-adv-x="1146" d="M102 573v287h328v328h287v-328h327v-287h-327v-327h-287v327h-328z" />
<glyph unicode="," horiz-adv-x="593" d="M92 -287l82 604h328l-164 -604h-246z" />
<glyph unicode="-" horiz-adv-x="1024" d="M123 465v295h778v-295h-778z" />
<glyph unicode="." horiz-adv-x="573" d="M92 166q0 79 57.5 136.5t137.5 57.5q79 0 136.5 -57t57.5 -137t-57.5 -137.5t-136.5 -57.5t-137 57.5t-58 137.5z" />
<glyph unicode="/" horiz-adv-x="1064" d="M61 -205l820 1843h123l-820 -1843h-123z" />
<glyph unicode="0" horiz-adv-x="1290" d="M61 717q0 222 68 389t201 261.5t315 94.5t315 -94.5t201 -261.5t68 -389t-68 -389.5t-201 -262t-315 -94.5t-315 94.5t-201 262t-68 389.5zM389 717q0 -209 64 -317.5t192 -108.5t192 108.5t64 317.5t-64 317.5t-192 108.5t-192 -108.5t-64 -317.5z" />
<glyph unicode="1" horiz-adv-x="825" d="M20 1298l375 136h287v-1434h-328v1087l-254 -69z" />
<glyph unicode="2" horiz-adv-x="1091" d="M31 1149q66 154 196.5 233.5t286.5 79.5q130 0 239 -52.5t177.5 -158t68.5 -245.5q0 -228 -223 -451l-237 -240h481v-315h-975v238l481 499q146 149 146 254q0 68 -41.5 110t-112.5 42q-72 0 -126 -42.5t-85 -113.5z" />
<glyph unicode="3" horiz-adv-x="1126" d="M41 279l283 163q26 -74 77.5 -112.5t141.5 -38.5q96 0 145 45t49 115t-49 114.5t-145 44.5h-68l-125 187l260 329h-524v308h922v-267l-248 -315q138 -48 221.5 -152.5t83.5 -248.5q0 -115 -42.5 -207.5t-115 -151t-166 -90t-198.5 -31.5q-170 0 -304 77.5t-198 230.5z " />
<glyph unicode="4" horiz-adv-x="1187" d="M41 229v303l457 902h352l-457 -902h299v308h332v-308h143v-303h-143v-229h-332v229h-651z" />
<glyph unicode="5" horiz-adv-x="1126" d="M41 279l283 163q26 -75 79 -113t150 -38q96 0 145.5 45t49.5 115t-47.5 114.5t-137.5 44.5h-448l59 824h830v-308h-523l-14 -196h117q136 0 245.5 -53t177.5 -163.5t68 -262.5q0 -115 -42.5 -207.5t-115 -151t-166 -90t-198.5 -31.5q-177 0 -312.5 77.5t-199.5 230.5z " />
<glyph unicode="6" horiz-adv-x="1146" d="M41 477q0 164 84 291l438 666h377l-311 -453q214 -17 345.5 -156t131.5 -348q0 -223 -148.5 -364.5t-384.5 -141.5q-237 0 -384.5 141t-147.5 365zM369 477q0 -92 58.5 -145t145.5 -53q85 0 145 54t60 144t-60 144.5t-145 54.5q-87 0 -145.5 -53.5t-58.5 -145.5z" />
<glyph unicode="7" horiz-adv-x="1003" d="M20 1118v316h943v-275l-467 -1159h-349l451 1118h-578z" />
<glyph unicode="8" horiz-adv-x="1175" d="M61 403q0 107 48.5 197t138.5 148q-137 108 -137 288q0 102 37.5 184t102.5 134t151 80t186 28t186 -28t151 -80t102.5 -134t37.5 -184q0 -180 -137 -288q90 -58 138 -148t48 -197q0 -199 -138 -315.5t-388 -116.5t-388.5 116.5t-138.5 315.5zM389 451q0 -80 55.5 -126 t143.5 -46t143 46t55 126t-55 126t-143 46t-143.5 -46t-55.5 -126zM438 1016q0 -61 41 -100t109 -39t108.5 39t40.5 100t-40.5 100t-108.5 39t-109 -39t-41 -100z" />
<glyph unicode="9" horiz-adv-x="1146" d="M41 956q0 223 148 364.5t384 141.5q237 0 385 -141.5t148 -364.5q0 -163 -84 -290l-438 -666h-377l311 453q-214 17 -345.5 155.5t-131.5 347.5zM369 956q0 -90 59.5 -144t144.5 -54q87 0 146 53t59 145t-59 145.5t-146 53.5q-85 0 -144.5 -54t-59.5 -145z" />
<glyph unicode=":" horiz-adv-x="573" d="M92 166q0 79 57.5 136.5t137.5 57.5q79 0 136.5 -57t57.5 -137t-57.5 -137.5t-136.5 -57.5t-137 57.5t-58 137.5zM92 862q0 80 58 137.5t137 57.5t136.5 -57.5t57.5 -137.5t-57.5 -137t-136.5 -57q-80 0 -137.5 57.5t-57.5 136.5z" />
<glyph unicode=";" horiz-adv-x="593" d="M92 -287l82 604h328l-164 -604h-246zM113 862q0 80 57.5 137.5t136.5 57.5t137 -57.5t58 -137.5q0 -79 -57.5 -136.5t-137.5 -57.5q-79 0 -136.5 57t-57.5 137z" />
<glyph unicode="&#x3c;" horiz-adv-x="1085" d="M82 584v266l922 399v-315l-574 -217l574 -217v-316z" />
<glyph unicode="=" horiz-adv-x="1064" d="M82 358v287h901v-287h-901zM82 788v287h901v-287h-901z" />
<glyph unicode="&#x3e;" horiz-adv-x="1085" d="M82 184v316l573 217l-573 217v315l922 -399v-266z" />
<glyph unicode="?" horiz-adv-x="1146" d="M61 1133q67 156 205.5 242.5t311.5 86.5q89 0 171.5 -27t148.5 -77t106 -129.5t40 -175.5q0 -62 -18 -118t-47 -98t-64 -80t-69.5 -69.5t-63.5 -59.5t-47 -58t-18 -58h-328q0 66 34 127t82 106.5t96 88.5t82 92t34 98q0 56 -38 87.5t-114 31.5q-148 0 -221 -172zM358 166 q0 79 57.5 136.5t137.5 57.5t137.5 -57.5t57.5 -136.5q0 -80 -58 -137.5t-137 -57.5t-137 57.5t-58 137.5z" />
<glyph unicode="@" horiz-adv-x="1585" d="M61 512q0 152 57 288.5t155.5 236t237.5 158t296 58.5q133 0 249.5 -40t201 -109t145.5 -158.5t91 -190t30 -202.5q0 -214 -92.5 -331.5t-243.5 -117.5q-106 0 -177.5 43t-103.5 117q-74 -90 -196 -90q-128 0 -209.5 95.5t-81.5 242.5t81.5 242.5t209.5 95.5 q105 0 176 -68v43h250v-483q0 -135 114 -135q87 0 139 87.5t52 258.5q0 173 -83.5 317t-229.5 227t-322 83q-138 0 -261 -52t-211.5 -140.5t-140 -212.5t-51.5 -263q0 -142 53 -266.5t145 -212.5t222.5 -138.5t280.5 -50.5q183 0 325 50v-78q-140 -45 -325 -45 q-165 0 -310 56t-249 153t-164 235t-60 297zM674 512q0 -52 28.5 -84.5t77.5 -32.5q47 0 76 33t29 84q0 53 -29 85t-76 32q-49 0 -77.5 -32t-28.5 -85z" />
<glyph unicode="A" horiz-adv-x="1392" d="M0 0l487 1434h418l488 -1434h-359l-71 225h-533l-72 -225h-358zM528 532h336l-168 527z" />
<glyph unicode="B" horiz-adv-x="1228" d="M123 0v1434h561q192 0 322.5 -114t130.5 -296q0 -172 -125 -281q82 -53 129 -135.5t47 -187.5q0 -187 -133.5 -303.5t-329.5 -116.5h-602zM451 307h274q61 0 98 38t37 99t-37 99.5t-98 38.5h-274v-275zM451 872h233q55 0 90 35.5t35 91.5t-34.5 91.5t-90.5 35.5h-233 v-254z" />
<glyph unicode="C" horiz-adv-x="1472" d="M61 717q0 209 95.5 379t267 268t383.5 98q193 0 356 -89t258 -243l-282 -163q-47 83 -135 129.5t-197 46.5q-190 0 -304 -116.5t-114 -309.5t114 -309.5t304 -116.5q109 0 198 46.5t134 129.5l282 -164q-93 -154 -256 -243t-358 -89q-159 0 -298 57.5t-237 157 t-154.5 237.5t-56.5 294z" />
<glyph unicode="D" horiz-adv-x="1454" d="M123 0v1434h573q146 0 275.5 -55.5t221.5 -150.5t146 -228t54 -283t-54 -283t-146 -228t-221.5 -150.5t-275.5 -55.5h-573zM451 315h245q170 0 275.5 109.5t105.5 292.5t-105.5 292t-275.5 109h-245v-803z" />
<glyph unicode="E" horiz-adv-x="1085" d="M123 0v1434h891v-316h-563v-237h512v-312h-512v-254h573v-315h-901z" />
<glyph unicode="F" horiz-adv-x="1064" d="M123 0v1434h870v-316h-542v-276h532v-316h-532v-526h-328z" />
<glyph unicode="G" horiz-adv-x="1603" d="M61 715q0 153 58.5 291.5t158.5 238.5t240 158.5t295 58.5q201 0 367.5 -89.5t259.5 -237.5l-279 -160q-46 74 -139.5 121t-210.5 47q-182 0 -302 -121t-120 -309q0 -186 122.5 -304t328.5 -118q140 0 233.5 58t132.5 163h-383v287h719v-123q0 -214 -93 -375.5 t-252.5 -245.5t-360.5 -84q-166 0 -311 58.5t-246.5 158.5t-159.5 237t-58 290z" />
<glyph unicode="H" horiz-adv-x="1351" d="M123 0v1434h328v-549h450v549h328v-1434h-328v569h-450v-569h-328z" />
<glyph unicode="I" horiz-adv-x="573" d="M123 0v1434h328v-1434h-328z" />
<glyph unicode="J" horiz-adv-x="1175" d="M61 250l285 164q36 -65 80 -94t123 -29q99 0 142.5 47.5t43.5 122.5v973h328v-973q0 -230 -144 -360t-372 -130q-342 0 -486 279z" />
<glyph unicode="K" horiz-adv-x="1282" d="M123 0v1434h328v-623l438 623h373l-484 -699l504 -735h-373l-458 664v-664h-328z" />
<glyph unicode="L" horiz-adv-x="983" d="M123 0v1434h328v-1119h512v-315h-840z" />
<glyph unicode="M" horiz-adv-x="1679" d="M123 0v1434h328l389 -637l389 637h327v-1434h-327v834l-371 -609h-37l-370 609v-834h-328z" />
<glyph unicode="N" horiz-adv-x="1372" d="M123 0v1434h246l553 -779v779h327v-1434h-245l-553 778v-778h-328z" />
<glyph unicode="O" horiz-adv-x="1613" d="M61 717q0 207 100 378.5t271 269t375 97.5q203 0 374 -97.5t271 -269t100 -378.5t-100 -379t-271 -269.5t-374 -97.5q-152 0 -290 57.5t-238 156.5t-159 238t-59 294zM389 717q0 -189 120 -307.5t298 -118.5t298 118.5t120 307.5t-120 307.5t-298 118.5t-298 -118.5 t-120 -307.5z" />
<glyph unicode="P" horiz-adv-x="1208" d="M123 0v1434h543q211 0 356 -143.5t145 -348.5t-145 -348t-356 -143h-215v-451h-328zM451 758h215q75 0 124.5 53t49.5 131t-49.5 131t-124.5 53h-215v-368z" />
<glyph unicode="Q" horiz-adv-x="1624" d="M61 717q0 207 100 378.5t271 269t375 97.5q203 0 374 -97.5t271 -269t100 -378.5q0 -266 -163 -469l143 -152l-236 -209l-153 162q-159 -78 -336 -78q-152 0 -290 57.5t-238 156.5t-159 238t-59 294zM389 717q0 -189 120 -307.5t298 -118.5q45 0 100 10l-207 219l236 209 l229 -244q60 107 60 232q0 189 -120 307.5t-298 118.5t-298 -118.5t-120 -307.5z" />
<glyph unicode="R" horiz-adv-x="1259" d="M123 0v1434h573q134 0 247 -66t179 -179t66 -247q0 -131 -72 -243t-192 -173l305 -526h-352l-271 471h-155v-471h-328zM451 758h245q68 0 116 53.5t48 130.5t-48 130.5t-116 53.5h-245v-368z" />
<glyph unicode="S" horiz-adv-x="1198" d="M51 326l283 163q85 -198 301 -198q106 0 150 34t44 83q0 63 -63 99t-234 83q-71 20 -126.5 42t-113 58t-95.5 81t-62 110.5t-24 144.5q0 100 40 184t107.5 138t153.5 84t180 30q177 0 311.5 -82.5t212.5 -240.5l-276 -162q-39 82 -97 124t-151 42q-73 0 -113.5 -31.5 t-40.5 -77.5q0 -36 17.5 -61t74.5 -54.5t166 -62.5q62 -19 95 -30t90 -34t89 -43.5t72.5 -55t62 -73t37 -92t15.5 -116.5q0 -204 -147.5 -322.5t-384.5 -118.5q-219 0 -365.5 95.5t-208.5 259.5z" />
<glyph unicode="T" horiz-adv-x="1105" d="M20 1118v316h1065v-316h-368v-1118h-328v1118h-369z" />
<glyph unicode="U" horiz-adv-x="1331" d="M113 463v971h327v-942q0 -201 226 -201q225 0 225 201v942h328v-971q0 -150 -73 -263t-197.5 -171t-282.5 -58t-282.5 58t-197.5 171t-73 263z" />
<glyph unicode="V" horiz-adv-x="1351" d="M0 1434h358l318 -1055l317 1055h359l-467 -1434h-418z" />
<glyph unicode="W" horiz-adv-x="2043" d="M20 1434h345l247 -1004l277 1004h266l277 -1004l247 1004h344l-395 -1434h-373l-233 846l-234 -846h-372z" />
<glyph unicode="X" horiz-adv-x="1269" d="M20 0l429 735l-408 699h373l221 -379l221 379h373l-408 -699l428 -735h-372l-242 414l-242 -414h-373z" />
<glyph unicode="Y" horiz-adv-x="1290" d="M0 1434h373l272 -553l273 553h372l-481 -883v-551h-328v551z" />
<glyph unicode="Z" horiz-adv-x="1105" d="M72 0v254l549 864h-539v316h962v-254l-548 -865h559v-315h-983z" />
<glyph unicode="[" horiz-adv-x="655" d="M102 -205v1843h512v-295h-204v-1253h204v-295h-512z" />
<glyph unicode="\" horiz-adv-x="1064" d="M61 1638h123l820 -1843h-123z" />
<glyph unicode="]" horiz-adv-x="655" d="M41 90h205v1253h-205v295h512v-1843h-512v295z" />
<glyph unicode="^" horiz-adv-x="1187" d="M82 737l401 697h222l401 -697h-328l-184 342l-184 -342h-328z" />
<glyph unicode="_" horiz-adv-x="1064" d="M61 -76h943v-295h-943v295z" />
<glyph unicode="`" horiz-adv-x="614" d="M41 1434l238 -287h294l-163 287h-369z" />
<glyph unicode="a" d="M61 512q0 227 144 384t346 157q196 0 305 -125v96h307v-1024h-307v96q-109 -125 -305 -125q-202 0 -346 157t-144 384zM369 512q0 -114 68 -182t175 -68t175.5 68t68.5 182t-68.5 182t-175.5 68t-175 -68t-68 -182z" />
<glyph unicode="b" d="M113 0v1434h307v-506q109 125 305 125q202 0 345.5 -157t143.5 -384t-143.5 -384t-345.5 -157q-196 0 -305 125v-96h-307zM420 512q0 -114 68.5 -182t175.5 -68t175 68t68 182t-68 182t-175 68t-175.5 -68t-68.5 -182z" />
<glyph unicode="c" horiz-adv-x="1087" d="M61 512q0 230 155.5 385.5t387.5 155.5q148 0 272 -71t191 -191l-268 -156q-26 54 -79 84.5t-120 30.5q-100 0 -165.5 -66.5t-65.5 -171.5t65.5 -171.5t165.5 -66.5q68 0 121 30.5t78 84.5l268 -153q-67 -121 -190.5 -193t-272.5 -72q-232 0 -387.5 155.5t-155.5 385.5z " />
<glyph unicode="d" d="M61 512q0 227 144 384t346 157q196 0 305 -125v506h307v-1434h-307v96q-109 -125 -305 -125q-202 0 -346 157t-144 384zM369 512q0 -114 68 -182t175 -68t175.5 68t68.5 182t-68.5 182t-175.5 68t-175 -68t-68 -182z" />
<glyph unicode="e" horiz-adv-x="1187" d="M61 512q0 152 68 275t193 194.5t284 71.5q224 0 372 -154.5t148 -386.5q0 -64 -12 -123h-727q53 -143 246 -143q61 0 112.5 21.5t83.5 56.5l246 -142q-152 -211 -446 -211q-129 0 -236 41.5t-179.5 114.5t-112.5 172t-40 213zM381 618h440q-23 84 -82 123t-135 39 q-87 0 -144 -42t-79 -120z" />
<glyph unicode="f" horiz-adv-x="675" d="M41 729v295h137q0 221 124 337q111 103 319 103q26 0 55 -2v-295q-18 2 -35 2q-156 0 -156 -145h191v-295h-191v-729h-307v729h-137z" />
<glyph unicode="g" d="M61 532q0 141 64.5 260t181 190t258.5 71q191 0 299 -133v104h299v-973q0 -124 -45.5 -220.5t-123 -153.5t-172 -86t-199.5 -29q-164 0 -290.5 62.5t-195.5 185.5l262 151q33 -61 86.5 -95t147.5 -34q109 0 170 56t61 163v94q-108 -133 -299 -133q-142 0 -258.5 71 t-181 190t-64.5 259zM369 532q0 -105 69 -171t178 -66t178.5 66t69.5 171t-69.5 171.5t-178.5 66.5t-178 -66t-69 -172z" />
<glyph unicode="h" horiz-adv-x="1193" d="M113 0v1434h307v-506q42 58 118 91.5t175 33.5q163 0 273 -112.5t110 -311.5v-629h-308v584q0 91 -50 138.5t-128 47.5q-88 0 -139 -53t-51 -158v-559h-307z" />
<glyph unicode="i" horiz-adv-x="532" d="M82 1298q0 75 54.5 130t129.5 55t130 -55t55 -130t-55 -129.5t-130 -54.5t-129.5 54.5t-54.5 129.5zM113 0v1024h307v-1024h-307z" />
<glyph unicode="j" horiz-adv-x="563" d="M-20 -143q11 -1 22 -1q69 0 102 30q39 33 39 114v1024h308v-1024q0 -239 -114 -345q-102 -94 -305 -94q-25 0 -52 1v295zM113 1298q0 75 54.5 130t129.5 55t129.5 -55t54.5 -130t-54.5 -129.5t-129.5 -54.5t-129.5 54.5t-54.5 129.5z" />
<glyph unicode="k" horiz-adv-x="1095" d="M113 0v1434h307v-859l307 449h358l-372 -512l383 -512h-348l-328 453v-453h-307z" />
<glyph unicode="l" horiz-adv-x="532" d="M113 0v1495h307v-1495h-307z" />
<glyph unicode="m" horiz-adv-x="1746" d="M113 0v1024h307v-94q83 123 274 123q180 0 269 -135q94 135 297 135q177 0 283 -116t106 -308v-629h-308v602q0 78 -37.5 123t-109.5 45q-76 0 -118 -50.5t-42 -141.5v-578h-307v602q0 78 -37.5 123t-109.5 45q-76 0 -118 -50.5t-42 -141.5v-578h-307z" />
<glyph unicode="n" horiz-adv-x="1193" d="M113 0v1024h307v-96q42 58 118 91.5t175 33.5q163 0 273 -112.5t110 -311.5v-629h-308v584q0 91 -50 138.5t-128 47.5q-88 0 -139 -53t-51 -158v-559h-307z" />
<glyph unicode="o" horiz-adv-x="1208" d="M61 512q0 150 72.5 274.5t197 195.5t273.5 71t273.5 -71t197 -195.5t72.5 -274.5t-72.5 -274.5t-197 -195.5t-273.5 -71t-273.5 71t-197 195.5t-72.5 274.5zM369 512q0 -107 67 -174.5t168 -67.5t168.5 67.5t67.5 174.5t-67.5 174.5t-168.5 67.5t-168 -67.5t-67 -174.5z " />
<glyph unicode="p" d="M113 -410v1434h307v-96q109 125 305 125q202 0 345.5 -157t143.5 -384t-143.5 -384t-345.5 -157q-196 0 -305 125v-506h-307zM420 512q0 -114 68.5 -182t175.5 -68t175 68t68 182t-68 182t-175 68t-175.5 -68t-68.5 -182z" />
<glyph unicode="q" d="M61 512q0 227 144 384t346 157q196 0 305 -125v96h307v-1434h-307v506q-109 -125 -305 -125q-202 0 -346 157t-144 384zM369 512q0 -114 68 -182t175 -68t175.5 68t68.5 182t-68.5 182t-175.5 68t-175 -68t-68 -182z" />
<glyph unicode="r" horiz-adv-x="757" d="M113 0v1024h307v-182q29 97 116 149.5t191 52.5v-348q-31 3 -64 3h-17q-42 -1 -82 -18t-72.5 -42.5t-52 -71.5t-19.5 -104v-463h-307z" />
<glyph unicode="s" horiz-adv-x="958" d="M41 215l266 152q42 -121 174 -121q111 0 111 63q0 22 -28 39t-72 30t-98 27.5t-108 38.5t-98 57t-72 88.5t-28 127.5q0 107 56.5 185t146 114.5t198.5 36.5q127 0 232 -56t168 -163l-262 -142q-49 90 -138 90q-40 0 -63 -15t-23 -42q0 -23 28 -39.5t72 -28.5t98 -26 t108 -38t98 -57.5t72 -92.5t28 -136q0 -85 -35 -151.5t-95.5 -105.5t-135.5 -59t-160 -20q-322 0 -440 244z" />
<glyph unicode="t" horiz-adv-x="794" d="M31 729v295h164v195l307 92v-287h211v-295h-211v-362q0 -43 24.5 -64t71.5 -25q22 -2 48 -1q30 0 67 2v-279q-89 -7 -160 -7h-17q-78 1 -135.5 20t-97 47.5t-63.5 74.5t-34.5 102t-10.5 130v362h-164z" />
<glyph unicode="u" horiz-adv-x="1193" d="M98 395v629h308v-584q0 -91 50 -138.5t128 -47.5q88 0 139 53t51 158v559h307v-1024h-307v96q-42 -58 -118 -91.5t-175 -33.5q-163 0 -273 112.5t-110 311.5z" />
<glyph unicode="v" horiz-adv-x="1105" d="M0 1024h340l213 -649l213 649h340l-379 -1024h-348z" />
<glyph unicode="w" horiz-adv-x="1576" d="M10 1024h328l147 -549l160 549h287l160 -549l147 549h328l-328 -1024h-287l-164 547l-163 -547h-287z" />
<glyph unicode="x" horiz-adv-x="1085" d="M0 0l367 520l-355 504h353l178 -254l178 254h352l-354 -504l366 -520h-352l-190 270l-191 -270h-352z" />
<glyph unicode="y" horiz-adv-x="1085" d="M0 1024h338l227 -627l193 627h327l-350 -993q-86 -242 -226 -347q-127 -95 -317 -95q-19 0 -40 1v287q107 0 164.5 38t91.5 132z" />
<glyph unicode="z" horiz-adv-x="972" d="M82 0v205l387 532h-367v287h779v-205l-387 -532h407v-287h-819z" />
<glyph unicode="{" horiz-adv-x="737" d="M102 571v297q72 -8 108 13t36 90v291q0 205 110.5 308.5t339.5 88.5v-295q-73 8 -108 -12.5t-35 -89.5v-291q0 -175 -109 -250q109 -78 109 -252v-291q0 -69 35 -89.5t108 -12.5v-295q-229 -15 -339.5 88.5t-110.5 308.5v291q0 69 -35.5 89.5t-108.5 12.5z" />
<glyph unicode="|" horiz-adv-x="552" d="M123 -410v1885h307v-1885h-307z" />
<glyph unicode="}" horiz-adv-x="737" d="M41 76q73 -8 108 12.5t35 89.5v291q0 174 109 252q-109 75 -109 250v291q0 69 -35 89.5t-108 12.5v295q229 15 340 -88.5t111 -308.5v-291q0 -69 35.5 -90t107.5 -13v-297q-73 8 -108 -12.5t-35 -89.5v-291q0 -205 -111 -308.5t-340 -88.5v295z" />
<glyph unicode="~" horiz-adv-x="1228" d="M82 618q28 107 80 178t120 101t146.5 27t163.5 -39q46 -19 70.5 -29t56.5 -21t47.5 -13t36.5 -2t31.5 7.5t24 20t22.5 31.5t20 47l246 -119q-28 -107 -80 -178t-120 -100.5t-146.5 -26.5t-163.5 39q-38 16 -58 24t-48 18.5t-42 14t-34.5 7.5t-30 2t-24 -5.5t-22 -12 t-17.5 -21.5t-17.5 -29.5t-15.5 -38.5z" />
<glyph unicode="&#xa1;" horiz-adv-x="573" d="M92 858q0 80 58 137.5t137 57.5t136.5 -57.5t57.5 -137.5t-57.5 -137t-136.5 -57q-80 0 -137.5 57.5t-57.5 136.5zM102 0l62 512h246l61 -512v-410h-369v410z" />
<glyph unicode="&#xa2;" horiz-adv-x="1087" d="M61 717q0 229 155.5 384.5t387.5 155.5q54 0 98 -8l60 185h123l-70 -217q167 -71 252 -222l-268 -155q-23 51 -78 84l-143 -445h22q68 0 121 30.5t78 84.5l268 -154q-67 -121 -190.5 -192.5t-272.5 -71.5q-62 0 -121 12l-61 -188h-123l72 225q-141 64 -225.5 195.5 t-84.5 296.5zM369 717q0 -133 98 -199l139 436h-6q-101 0 -166 -66t-65 -171z" />
<glyph unicode="&#xa3;" horiz-adv-x="1187" d="M61 0v315h136v236h-115v287h115v172q0 113 40 202.5t107 142.5t146.5 80t166.5 27q161 0 282.5 -80t180.5 -225l-284 -164q-24 77 -62.5 113.5t-105.5 36.5q-64 0 -104 -39t-40 -109v-157h398v-287h-398v-236h643v-315h-1106z" />
<glyph unicode="&#xa4;" horiz-adv-x="1105" d="M61 307l144 144q-92 116 -92 266t92 266l-144 143l82 82l146 -145q114 84 264 84t264 -84l146 145l81 -82l-143 -143q92 -116 92 -266q0 -149 -92 -268l143 -142l-81 -82l-144 146q-117 -84 -266 -84q-150 0 -264 84l-146 -146zM416 717q0 -63 37 -101t100 -38t100 38 t37 101t-37 101t-100 38t-100 -38t-37 -101z" />
<glyph unicode="&#xa5;" horiz-adv-x="1249" d="M0 1434h373l272 -553l273 553h372l-372 -682h188v-181h-287l-10 -20v-62h297v-180h-297v-309h-328v309h-338v180h338v62l-10 20h-328v181h230z" />
<glyph unicode="&#xa6;" horiz-adv-x="552" d="M123 348h307v-758h-307v758zM123 717v758h307v-758h-307z" />
<glyph unicode="&#xa7;" horiz-adv-x="1130" d="M92 655q0 163 123 258q-55 80 -55 201q0 87 34 155t92 109.5t129 62.5t150 21q136 0 249.5 -65.5t172.5 -196.5l-254 -137q-65 133 -168 133q-48 0 -73 -22t-25 -60q0 -13 4 -25t13.5 -23t19.5 -20t28 -19t31.5 -17t38.5 -17t40.5 -16t45 -17.5t45.5 -17.5 q55 -21 95.5 -40.5t86.5 -50t75.5 -65t49 -83t19.5 -105.5q0 -162 -119 -268q61 -84 61 -203q0 -89 -34.5 -159t-94.5 -112t-135.5 -63.5t-161.5 -21.5q-349 0 -462 254l276 157q28 -77 73.5 -111t112.5 -34q61 0 90 24.5t29 65.5q0 22 -14.5 41t-47.5 36.5t-61.5 29.5 t-82.5 32t-85 33q-52 21 -92 42t-83 52.5t-71.5 67.5t-46.5 86t-18 108zM399 676q0 -47 37 -78t107 -57q17 -6 79 -28t97 -36q33 30 33 80q0 51 -40 80.5t-124 60.5q-146 53 -156 58q-33 -30 -33 -80z" />
<glyph unicode="&#xa8;" horiz-adv-x="778" d="M41 1260q0 63 45.5 108t108.5 45t108 -45t45 -108t-45 -108.5t-108 -45.5t-108.5 45.5t-45.5 108.5zM430 1260q0 63 45.5 108t108.5 45t108 -45t45 -108t-45 -108.5t-108 -45.5t-108.5 45.5t-45.5 108.5z" />
<glyph unicode="&#xa9;" horiz-adv-x="1605" d="M61 717q0 202 99.5 372.5t270 269.5t372.5 99q151 0 288.5 -58.5t236.5 -157.5t157.5 -236.5t58.5 -288.5q0 -202 -99 -372.5t-269.5 -270t-372.5 -99.5t-372.5 99.5t-270 270t-99.5 372.5zM143 717q0 -136 52 -259.5t140.5 -213t211 -142.5t256.5 -53q179 0 331 89.5 t240 243t88 335.5q0 136 -52 259.5t-140 213t-210.5 142t-256.5 52.5t-256.5 -52.5t-211 -142t-140.5 -213t-52 -259.5zM401 717q0 164 120.5 283.5t287.5 119.5q106 0 198.5 -52.5t147.5 -145.5l-225 -131q-42 69 -127 69q-64 0 -104 -42.5t-40 -100.5t40 -101t104 -43 q85 0 127 70l225 -131q-54 -93 -146.5 -146t-199.5 -53q-167 0 -287.5 119.5t-120.5 284.5z" />
<glyph unicode="&#xab;" horiz-adv-x="1150" d="M123 633l225 389h270l-225 -389l225 -389h-270zM532 633l226 389h270l-225 -389l225 -389h-270z" />
<glyph unicode="&#xac;" horiz-adv-x="1146" d="M82 573v287h983v-532h-307v245h-676z" />
<glyph unicode="&#xad;" horiz-adv-x="1024" d="M123 465v295h778v-295h-778z" />
<glyph unicode="&#xae;" horiz-adv-x="1605" d="M61 717q0 202 99.5 372.5t270 269.5t372.5 99q151 0 288.5 -58.5t236.5 -157.5t157.5 -236.5t58.5 -288.5q0 -202 -99 -372.5t-269.5 -270t-372.5 -99.5t-372.5 99.5t-270 270t-99.5 372.5zM143 717q0 -136 52 -259.5t140.5 -213t211 -142.5t256.5 -53q179 0 331 89.5 t240 243t88 335.5q0 136 -52 259.5t-140 213t-210.5 142t-256.5 52.5t-256.5 -52.5t-211 -142t-140.5 -213t-52 -259.5zM506 338v758h328q120 0 207 -70t87 -184q0 -144 -104 -228l156 -276h-269l-98 209h-57v-209h-250zM756 752h51q32 0 52 16.5t20 42.5q0 59 -72 59h-51 v-118z" />
<glyph unicode="&#xaf;" horiz-adv-x="696" d="M41 1145v246h614v-246h-614z" />
<glyph unicode="&#xb0;" horiz-adv-x="831" d="M61 1311q0 146 101.5 247t253.5 101t253 -101t101 -247q0 -145 -100 -246.5t-254 -101.5q-152 0 -253.5 102t-101.5 246zM315 1311q0 -44 28.5 -73.5t72.5 -29.5q45 0 72.5 28.5t27.5 74.5q0 44 -28 73t-72 29t-72.5 -29t-28.5 -73z" />
<glyph unicode="&#xb1;" horiz-adv-x="1146" d="M102 82v287h942v-287h-942zM102 778v287h328v287h287v-287h327v-287h-327v-286h-287v286h-328z" />
<glyph unicode="&#xb4;" horiz-adv-x="614" d="M41 1147h295l237 287h-368z" />
<glyph unicode="&#xb5;" horiz-adv-x="1269" d="M113 -410v1434h307v-584q0 -91 50 -138.5t128 -47.5q88 0 139 53t51 158v559h308v-676q0 -61 61 -61h72v-287h-133q-150 0 -232 88q-42 -55 -116 -86t-170 -31q-88 0 -158 33v-414h-307z" />
<glyph unicode="&#xb6;" horiz-adv-x="1429" d="M41 983q0 187 131.5 319t319.5 132h839v-267h-127v-1577h-286v1577h-140v-1577h-286v942q-187 0 -319 132.5t-132 318.5z" />
<glyph unicode="&#xb7;" horiz-adv-x="573" d="M92 709q0 79 57.5 136.5t137.5 57.5q79 0 136.5 -57.5t57.5 -136.5q0 -80 -57.5 -137.5t-136.5 -57.5t-137 58t-58 137z" />
<glyph unicode="&#xb8;" horiz-adv-x="542" d="M41 -229q195 -15 195 28q0 31 -109 41v160h246v-94q51 -13 90 -52.5t39 -105.5q0 -217 -461 -190v213z" />
<glyph unicode="&#xbb;" horiz-adv-x="1150" d="M123 244l225 389l-225 389h270l225 -389l-225 -389h-270zM532 244l226 389l-226 389h271l225 -389l-225 -389h-271z" />
<glyph unicode="&#xbc;" horiz-adv-x="1662" d="M0 1343l250 91h219v-820h-250v572l-162 -45zM233 0l820 1434h204l-819 -1434h-205zM950 125v225l250 469h266l-239 -469h92v125h237v-125h76v-225h-76v-125h-237v125h-369z" />
<glyph unicode="&#xbd;" horiz-adv-x="1669" d="M0 1343l250 91h219v-820h-250v572l-162 -45zM233 0l820 1434h204l-819 -1434h-205zM961 641q40 95 120.5 151t194.5 56q133 0 222 -72.5t89 -187.5q0 -75 -37 -136t-106 -130l-96 -97h251v-225h-626v158l297 301q65 65 65 108q0 26 -17 41t-46 15q-68 0 -109 -97z" />
<glyph unicode="&#xbe;" horiz-adv-x="1810" d="M10 770l211 123q18 -51 46.5 -71.5t72.5 -20.5q72 0 72 63q0 30 -22.5 46t-59.5 16h-49l-86 127l127 155h-273v226h576v-174l-138 -162q85 -28 131 -88t46 -146q0 -136 -85.5 -207t-238.5 -71q-247 0 -330 184zM381 0l819 1434h205l-819 -1434h-205zM1098 125v225 l250 469h266l-240 -469h92v125h238v-125h76v-225h-76v-125h-238v125h-368z" />
<glyph unicode="&#xbf;" horiz-adv-x="1146" d="M102 -29q0 85 34 158.5t82 124t96 93.5t82 85t34 80h328q0 -66 -34 -127t-82 -106.5t-96 -88.5t-82 -92t-34 -98q0 -56 38 -87.5t114 -31.5q148 0 221 172l282 -162q-67 -156 -205 -242.5t-311 -86.5q-89 0 -171.5 27t-149 77t-106.5 129.5t-40 175.5zM399 858 q0 80 57.5 137.5t137.5 57.5q79 0 136.5 -57.5t57.5 -137.5t-57 -137t-137 -57t-137.5 57.5t-57.5 136.5z" />
<glyph unicode="&#xc0;" horiz-adv-x="1392" d="M0 0l487 1434h418l488 -1434h-359l-71 225h-533l-72 -225h-358zM348 1843h369l164 -287h-295zM528 532h336l-168 527z" />
<glyph unicode="&#xc1;" horiz-adv-x="1392" d="M0 0l487 1434h418l488 -1434h-359l-71 225h-533l-72 -225h-358zM512 1556l164 287h368l-237 -287h-295zM528 532h336l-168 527z" />
<glyph unicode="&#xc2;" horiz-adv-x="1392" d="M0 0l487 1434h418l488 -1434h-359l-71 225h-533l-72 -225h-358zM317 1536l218 307h303l217 -307h-297l-72 113l-72 -113h-297zM528 532h336l-168 527z" />
<glyph unicode="&#xc3;" horiz-adv-x="1392" d="M0 0l487 1434h418l488 -1434h-359l-71 225h-533l-72 -225h-358zM328 1542q0 101 24 173t63.5 107.5t92 46t108.5 -4t113 -49.5q53 -32 70.5 -22t17.5 71h246q0 -101 -24 -173t-63.5 -107.5t-92 -46t-108.5 4t-113 49.5q-52 32 -70.5 22t-18.5 -71h-245zM528 532h336 l-168 527z" />
<glyph unicode="&#xc4;" horiz-adv-x="1392" d="M0 0l487 1434h418l488 -1434h-359l-71 225h-533l-72 -225h-358zM348 1669q0 63 45.5 108.5t108.5 45.5t108 -45.5t45 -108.5t-45 -108t-108 -45t-108.5 45t-45.5 108zM528 532h336l-168 527zM737 1669q0 63 45.5 108.5t108.5 45.5t108 -45.5t45 -108.5t-45 -108t-108 -45 t-108.5 45t-45.5 108z" />
<glyph unicode="&#xc5;" horiz-adv-x="1392" d="M0 0l481 1415q-57 66 -57 162q0 110 76.5 183t195.5 73q121 0 197 -73t76 -183q0 -93 -58 -164l482 -1413h-359l-71 225h-533l-72 -225h-358zM528 532h336l-168 527zM625 1577q0 -31 18.5 -50.5t52.5 -19.5q35 0 54.5 19.5t19.5 50.5t-19.5 50.5t-54.5 19.5 q-34 0 -52.5 -19.5t-18.5 -50.5z" />
<glyph unicode="&#xc6;" horiz-adv-x="1802" d="M0 0l838 1434h893v-316h-492v-237h440v-312h-440v-254h502v-315h-819v225h-422l-131 -225h-369zM678 532h244v418z" />
<glyph unicode="&#xc7;" horiz-adv-x="1472" d="M61 717q0 209 95.5 379t267 268t383.5 98q193 0 356 -89t258 -243l-282 -163q-47 83 -135 129.5t-197 46.5q-190 0 -304 -116.5t-114 -309.5t114 -309.5t304 -116.5q109 0 198 46.5t134 129.5l282 -164q-75 -124 -200 -207.5t-277 -111.5v-78q51 -13 90 -52.5t39 -105.5 q0 -217 -461 -190v213q195 -15 195 28q0 31 -109 41v137q-281 37 -459 244t-178 496z" />
<glyph unicode="&#xc8;" horiz-adv-x="1085" d="M123 0v1434h891v-316h-563v-237h512v-312h-512v-254h573v-315h-901zM221 1843h369l164 -287h-295z" />
<glyph unicode="&#xc9;" horiz-adv-x="1085" d="M123 0v1434h891v-316h-563v-237h512v-312h-512v-254h573v-315h-901zM385 1556l164 287h369l-238 -287h-295z" />
<glyph unicode="&#xca;" horiz-adv-x="1085" d="M123 0v1434h891v-316h-563v-237h512v-312h-512v-254h573v-315h-901zM190 1536l218 307h303l217 -307h-297l-72 113l-72 -113h-297z" />
<glyph unicode="&#xcb;" horiz-adv-x="1085" d="M123 0v1434h891v-316h-563v-237h512v-312h-512v-254h573v-315h-901zM221 1669q0 63 45.5 108.5t108.5 45.5t108 -45.5t45 -108.5t-45 -108t-108 -45t-108.5 45t-45.5 108zM610 1669q0 63 45.5 108.5t108.5 45.5t108.5 -45.5t45.5 -108.5t-45.5 -108t-108.5 -45t-108.5 45 t-45.5 108z" />
<glyph unicode="&#xcc;" horiz-adv-x="573" d="M-61 1843l237 -287h295l-164 287h-368zM123 0v1434h328v-1434h-328z" />
<glyph unicode="&#xcd;" horiz-adv-x="573" d="M102 1556h295l238 287h-369zM123 0v1434h328v-1434h-328z" />
<glyph unicode="&#xce;" horiz-adv-x="573" d="M-92 1536l217 307h303l217 -307h-297l-72 113l-71 -113h-297zM123 0v1434h328v-1434h-328z" />
<glyph unicode="&#xcf;" horiz-adv-x="573" d="M-61 1669q0 63 45 108.5t108 45.5t108.5 -45.5t45.5 -108.5t-45.5 -108t-108.5 -45t-108 45t-45 108zM123 0v1434h328v-1434h-328zM328 1669q0 63 45 108.5t108 45.5t108.5 -45.5t45.5 -108.5t-45.5 -108t-108.5 -45t-108 45t-45 108z" />
<glyph unicode="&#xd0;" horiz-adv-x="1536" d="M41 549v295h164v590h573q146 0 275.5 -55.5t221.5 -150.5t146 -228t54 -283t-54 -283t-146 -228t-221.5 -150.5t-275.5 -55.5h-573v549h-164zM532 315h246q170 0 275.5 109.5t105.5 292.5t-105.5 292t-275.5 109h-246v-274h287v-295h-287v-234z" />
<glyph unicode="&#xd1;" horiz-adv-x="1372" d="M123 0v1434h246l553 -779v779h327v-1434h-245l-553 778v-778h-328zM297 1542q0 101 24 173t63.5 107.5t92 46t108.5 -4t113 -49.5q52 -32 70 -22t18 71h246q0 -101 -24 -173t-63.5 -107.5t-92 -46t-108.5 4t-113 49.5q-53 32 -70.5 22t-17.5 -71h-246z" />
<glyph unicode="&#xd2;" horiz-adv-x="1613" d="M61 717q0 207 100 378.5t271 269t375 97.5q203 0 374 -97.5t271 -269t100 -378.5t-100 -379t-271 -269.5t-374 -97.5q-152 0 -290 57.5t-238 156.5t-159 238t-59 294zM389 717q0 -189 120 -307.5t298 -118.5t298 118.5t120 307.5t-120 307.5t-298 118.5t-298 -118.5 t-120 -307.5zM459 1864l237 -287h295l-164 287h-368z" />
<glyph unicode="&#xd3;" horiz-adv-x="1613" d="M61 717q0 207 100 378.5t271 269t375 97.5q203 0 374 -97.5t271 -269t100 -378.5t-100 -379t-271 -269.5t-374 -97.5q-152 0 -290 57.5t-238 156.5t-159 238t-59 294zM389 717q0 -189 120 -307.5t298 -118.5t298 118.5t120 307.5t-120 307.5t-298 118.5t-298 -118.5 t-120 -307.5zM623 1577h295l237 287h-369z" />
<glyph unicode="&#xd4;" horiz-adv-x="1613" d="M61 717q0 207 100 378.5t271 269t375 97.5q203 0 374 -97.5t271 -269t100 -378.5t-100 -379t-271 -269.5t-374 -97.5q-152 0 -290 57.5t-238 156.5t-159 238t-59 294zM389 717q0 -189 120 -307.5t298 -118.5t298 118.5t120 307.5t-120 307.5t-298 118.5t-298 -118.5 t-120 -307.5zM428 1556l217 308h303l217 -308h-297l-71 113l-72 -113h-297z" />
<glyph unicode="&#xd5;" horiz-adv-x="1613" d="M61 717q0 207 100 378.5t271 269t375 97.5q203 0 374 -97.5t271 -269t100 -378.5t-100 -379t-271 -269.5t-374 -97.5q-152 0 -290 57.5t-238 156.5t-159 238t-59 294zM389 717q0 -189 120 -307.5t298 -118.5t298 118.5t120 307.5t-120 307.5t-298 118.5t-298 -118.5 t-120 -307.5zM438 1563q0 101 24 173t64 107.5t92 46t108.5 -4.5t113.5 -50q52 -32 70 -22t18 71h246q0 -101 -24 -173t-64 -107.5t-92 -46t-108.5 4.5t-113.5 50q-52 32 -70 22t-18 -71h-246z" />
<glyph unicode="&#xd6;" horiz-adv-x="1613" d="M61 717q0 207 100 378.5t271 269t375 97.5q203 0 374 -97.5t271 -269t100 -378.5t-100 -379t-271 -269.5t-374 -97.5q-152 0 -290 57.5t-238 156.5t-159 238t-59 294zM389 717q0 -189 120 -307.5t298 -118.5t298 118.5t120 307.5t-120 307.5t-298 118.5t-298 -118.5 t-120 -307.5zM459 1690q0 63 45 108t108 45t108.5 -45t45.5 -108t-45.5 -108.5t-108.5 -45.5t-108 45.5t-45 108.5zM848 1690q0 63 45 108t108 45t108.5 -45t45.5 -108t-45.5 -108.5t-108.5 -45.5t-108 45.5t-45 108.5z" />
<glyph unicode="&#xd7;" horiz-adv-x="1075" d="M102 483l234 234l-234 233l203 201l234 -231l231 231l203 -201l-234 -233l234 -234l-203 -200l-231 233l-234 -233z" />
<glyph unicode="&#xd8;" horiz-adv-x="1624" d="M72 717q0 207 100 378.5t271 269t374 97.5q219 0 404 -114l94 114l153 -88l-112 -137q99 -102 153 -235.5t54 -284.5q0 -155 -59 -294t-159 -238t-238 -156.5t-290 -57.5q-216 0 -403 115l-95 -115l-153 88l113 138q-99 102 -153 235.5t-54 284.5zM399 717 q0 -155 86 -268l531 647q-89 47 -199 47q-178 0 -298 -118.5t-120 -307.5zM618 338q89 -47 199 -47q178 0 298 118.5t120 307.5q0 155 -86 268z" />
<glyph unicode="&#xd9;" horiz-adv-x="1331" d="M113 463v971h327v-942q0 -201 226 -201q225 0 225 201v942h328v-971q0 -150 -73 -263t-197.5 -171t-282.5 -58t-282.5 58t-197.5 171t-73 263zM317 1843l238 -287h295l-164 287h-369z" />
<glyph unicode="&#xda;" horiz-adv-x="1331" d="M113 463v971h327v-942q0 -201 226 -201q225 0 225 201v942h328v-971q0 -150 -73 -263t-197.5 -171t-282.5 -58t-282.5 58t-197.5 171t-73 263zM481 1556h295l238 287h-369z" />
<glyph unicode="&#xdb;" horiz-adv-x="1331" d="M113 463v971h327v-942q0 -201 226 -201q225 0 225 201v942h328v-971q0 -150 -73 -263t-197.5 -171t-282.5 -58t-282.5 58t-197.5 171t-73 263zM287 1536l217 307h303l217 -307h-297l-72 113l-71 -113h-297z" />
<glyph unicode="&#xdc;" horiz-adv-x="1331" d="M113 463v971h327v-942q0 -201 226 -201q225 0 225 201v942h328v-971q0 -150 -73 -263t-197.5 -171t-282.5 -58t-282.5 58t-197.5 171t-73 263zM317 1669q0 63 45.5 108.5t108.5 45.5t108.5 -45.5t45.5 -108.5t-45.5 -108t-108.5 -45t-108.5 45t-45.5 108zM707 1669 q0 63 45 108.5t108 45.5t108.5 -45.5t45.5 -108.5t-45.5 -108t-108.5 -45t-108 45t-45 108z" />
<glyph unicode="&#xdd;" horiz-adv-x="1290" d="M0 1434h373l272 -553l273 553h372l-481 -883v-551h-328v551zM461 1556l164 287h368l-237 -287h-295z" />
<glyph unicode="&#xde;" horiz-adv-x="1208" d="M123 0v1434h328v-226h225q134 0 247 -65.5t178.5 -178.5t65.5 -247t-65.5 -247t-178.5 -179t-247 -66h-225v-225h-328zM451 532h225q68 0 116 53.5t48 131.5q0 77 -48 130.5t-116 53.5h-225v-369z" />
<glyph unicode="&#xdf;" horiz-adv-x="1114" d="M113 0v1034q0 195 121.5 311.5t330.5 116.5q184 0 294 -98t110 -236q0 -60 -16 -110.5t-35.5 -79t-35.5 -61t-16 -60.5q0 -38 34 -97t74.5 -115.5t74.5 -140.5t34 -165q0 -365 -518 -313v270q120 -13 165.5 16t45.5 88q0 39 -35 99.5t-77.5 114.5t-77.5 117t-35 106 q0 35 17.5 72t38 63.5t38 64.5t17.5 76q0 45 -29.5 78t-81.5 33q-60 0 -95.5 -37t-35.5 -109v-1038h-307z" />
<glyph unicode="&#xe0;" d="M61 512q0 227 144 384t346 157q196 0 305 -125v96h307v-1024h-307v96q-109 -125 -305 -125q-202 0 -346 157t-144 384zM287 1434h368l164 -287h-295zM369 512q0 -114 68 -182t175 -68t175.5 68t68.5 182t-68.5 182t-175.5 68t-175 -68t-68 -182z" />
<glyph unicode="&#xe1;" d="M61 512q0 227 144 384t346 157q196 0 305 -125v96h307v-1024h-307v96q-109 -125 -305 -125q-202 0 -346 157t-144 384zM369 512q0 -114 68 -182t175 -68t175.5 68t68.5 182t-68.5 182t-175.5 68t-175 -68t-68 -182zM451 1147l163 287h369l-238 -287h-294z" />
<glyph unicode="&#xe2;" d="M61 512q0 227 144 384t346 157q196 0 305 -125v96h307v-1024h-307v96q-109 -125 -305 -125q-202 0 -346 157t-144 384zM256 1126l217 308h303l217 -308h-297l-71 113l-72 -113h-297zM369 512q0 -114 68 -182t175 -68t175.5 68t68.5 182t-68.5 182t-175.5 68t-175 -68 t-68 -182z" />
<glyph unicode="&#xe3;" d="M61 512q0 227 144 384t346 157q196 0 305 -125v96h307v-1024h-307v96q-109 -125 -305 -125q-202 0 -346 157t-144 384zM266 1133q0 101 24 173t64 107.5t92 46t108.5 -4.5t113.5 -50q52 -32 70 -22t18 71h245q0 -101 -24 -173t-63.5 -107.5t-92 -46t-108.5 4.5t-113 50 q-52 32 -70 22t-18 -71h-246zM369 512q0 -114 68 -182t175 -68t175.5 68t68.5 182t-68.5 182t-175.5 68t-175 -68t-68 -182z" />
<glyph unicode="&#xe4;" d="M61 512q0 227 144 384t346 157q196 0 305 -125v96h307v-1024h-307v96q-109 -125 -305 -125q-202 0 -346 157t-144 384zM287 1260q0 63 45 108t108 45t108.5 -45t45.5 -108t-45.5 -108.5t-108.5 -45.5t-108 45.5t-45 108.5zM369 512q0 -114 68 -182t175 -68t175.5 68 t68.5 182t-68.5 182t-175.5 68t-175 -68t-68 -182zM676 1260q0 63 45 108t108 45t108.5 -45t45.5 -108t-45.5 -108.5t-108.5 -45.5t-108 45.5t-45 108.5z" />
<glyph unicode="&#xe5;" d="M61 512q0 227 144 384t346 157q196 0 305 -125v96h307v-1024h-307v96q-109 -125 -305 -125q-202 0 -346 157t-144 384zM362 1352q0 110 77 183t196 73q121 0 196.5 -73t75.5 -183t-75.5 -183t-196.5 -73q-119 0 -196 73t-77 183zM369 512q0 -114 68 -182t175 -68 t175.5 68t68.5 182t-68.5 182t-175.5 68t-175 -68t-68 -182zM563 1352q0 -30 19 -50t53 -20q35 0 54.5 19.5t19.5 50.5q0 30 -19.5 49.5t-54.5 19.5q-34 0 -53 -19.5t-19 -49.5z" />
<glyph unicode="&#xe6;" horiz-adv-x="1986" d="M61 512q0 227 144 384t346 157q196 0 305 -125v96h287v-109q125 138 317 138q218 0 341.5 -151t123.5 -390q0 -64 -12 -123h-727q29 -75 95 -109t151 -34q61 0 112.5 21.5t83.5 56.5l246 -142q-78 -109 -171.5 -160t-234.5 -51q-198 0 -325 140v-111h-287v96 q-109 -125 -305 -125q-202 0 -346 157t-144 384zM369 512q0 -114 68 -182t175 -68t175.5 68t68.5 182t-68.5 182t-175.5 68t-175 -68t-68 -182zM1180 623h440q-23 82 -80.5 119.5t-132.5 37.5q-176 0 -227 -157z" />
<glyph unicode="&#xe7;" horiz-adv-x="1087" d="M61 512q0 230 155.5 385.5t387.5 155.5q148 0 272 -71t191 -191l-268 -156q-26 54 -79 84.5t-120 30.5q-100 0 -165.5 -66.5t-65.5 -171.5t65.5 -171.5t165.5 -66.5q68 0 121 30.5t78 84.5l268 -153q-51 -92 -135.5 -156t-190.5 -92v-82q51 -13 90 -52.5t39 -105.5 q0 -217 -460 -190v213q194 -15 194 28q0 31 -108 41v142q-193 35 -314 182.5t-121 347.5z" />
<glyph unicode="&#xe8;" horiz-adv-x="1187" d="M61 512q0 152 68 275t193 194.5t284 71.5q224 0 372 -154.5t148 -386.5q0 -64 -12 -123h-727q53 -143 246 -143q61 0 112.5 21.5t83.5 56.5l246 -142q-152 -211 -446 -211q-129 0 -236 41.5t-179.5 114.5t-112.5 172t-40 213zM246 1444h368l164 -287h-295zM381 618h440 q-23 84 -82 123t-135 39q-87 0 -144 -42t-79 -120z" />
<glyph unicode="&#xe9;" horiz-adv-x="1187" d="M61 512q0 152 68 275t193 194.5t284 71.5q224 0 372 -154.5t148 -386.5q0 -64 -12 -123h-727q53 -143 246 -143q61 0 112.5 21.5t83.5 56.5l246 -142q-152 -211 -446 -211q-129 0 -236 41.5t-179.5 114.5t-112.5 172t-40 213zM381 618h440q-23 84 -82 123t-135 39 q-87 0 -144 -42t-79 -120zM410 1157l163 287h369l-237 -287h-295z" />
<glyph unicode="&#xea;" horiz-adv-x="1187" d="M61 512q0 152 68 275t193 194.5t284 71.5q224 0 372 -154.5t148 -386.5q0 -64 -12 -123h-727q53 -143 246 -143q61 0 112.5 21.5t83.5 56.5l246 -142q-152 -211 -446 -211q-129 0 -236 41.5t-179.5 114.5t-112.5 172t-40 213zM215 1137l217 307h303l217 -307h-297 l-71 112l-72 -112h-297zM381 618h440q-23 84 -82 123t-135 39q-87 0 -144 -42t-79 -120z" />
<glyph unicode="&#xeb;" horiz-adv-x="1187" d="M61 512q0 152 68 275t193 194.5t284 71.5q224 0 372 -154.5t148 -386.5q0 -64 -12 -123h-727q53 -143 246 -143q61 0 112.5 21.5t83.5 56.5l246 -142q-152 -211 -446 -211q-129 0 -236 41.5t-179.5 114.5t-112.5 172t-40 213zM246 1270q0 63 45 108t108 45t108.5 -45 t45.5 -108t-45.5 -108.5t-108.5 -45.5t-108 45.5t-45 108.5zM381 618h440q-23 84 -82 123t-135 39q-87 0 -144 -42t-79 -120zM635 1270q0 63 45 108t108 45t108.5 -45t45.5 -108t-45.5 -108.5t-108.5 -45.5t-108 45.5t-45 108.5z" />
<glyph unicode="&#xec;" horiz-adv-x="532" d="M-20 1434l135 -308h295l-82 308h-348zM113 0v1024h307v-1024h-307z" />
<glyph unicode="&#xed;" horiz-adv-x="532" d="M113 0v1024h307v-1024h-307zM113 1126h295l135 308h-348z" />
<glyph unicode="&#xee;" horiz-adv-x="532" d="M-82 1126l197 308h303l196 -308h-297l-51 91l-51 -91h-297zM113 0v1024h307v-1024h-307z" />
<glyph unicode="&#xef;" horiz-adv-x="532" d="M-72 1270q0 63 45.5 108t108.5 45t108.5 -45t45.5 -108t-45.5 -108.5t-108.5 -45.5t-108.5 45.5t-45.5 108.5zM113 0v1024h307v-1024h-307zM297 1270q0 63 45.5 108t108.5 45t108 -45t45 -108t-45 -108.5t-108 -45.5t-108.5 45.5t-45.5 108.5z" />
<glyph unicode="&#xf0;" horiz-adv-x="1159" d="M61 471q0 123 59 227t162.5 166.5t229.5 65.5l-104 141l-271 -125v205l160 74l-150 209h353l63 -84l244 112v-205l-131 -61l328 -438q94 -130 94 -287q0 -151 -73 -266t-189.5 -172.5t-255.5 -57.5q-103 0 -196.5 34t-165.5 96t-114.5 157t-42.5 209zM369 471 q0 -98 58 -153.5t153 -55.5t153 55.5t58 153.5q0 65 -37 121q-61 80 -174 80q-95 0 -153 -54t-58 -147z" />
<glyph unicode="&#xf1;" horiz-adv-x="1193" d="M113 0v1024h307v-96q42 58 118 91.5t175 33.5q163 0 273 -112.5t110 -311.5v-629h-308v584q0 91 -50 138.5t-128 47.5q-88 0 -139 -53t-51 -158v-559h-307zM248 1153q0 101 24 173t63.5 107.5t92 46t108.5 -4.5t113 -50q53 -32 70.5 -22t17.5 72h246q0 -101 -24 -173 t-63.5 -107.5t-92 -46t-108.5 4t-113 49.5q-52 32 -70 22t-18 -71h-246z" />
<glyph unicode="&#xf2;" horiz-adv-x="1208" d="M61 512q0 150 72.5 274.5t197 195.5t273.5 71t273.5 -71t197 -195.5t72.5 -274.5t-72.5 -274.5t-197 -195.5t-273.5 -71t-273.5 71t-197 195.5t-72.5 274.5zM256 1454l238 -287h294l-163 287h-369zM369 512q0 -107 67 -174.5t168 -67.5t168.5 67.5t67.5 174.5 t-67.5 174.5t-168.5 67.5t-168 -67.5t-67 -174.5z" />
<glyph unicode="&#xf3;" horiz-adv-x="1208" d="M61 512q0 150 72.5 274.5t197 195.5t273.5 71t273.5 -71t197 -195.5t72.5 -274.5t-72.5 -274.5t-197 -195.5t-273.5 -71t-273.5 71t-197 195.5t-72.5 274.5zM369 512q0 -107 67 -174.5t168 -67.5t168.5 67.5t67.5 174.5t-67.5 174.5t-168.5 67.5t-168 -67.5t-67 -174.5z M420 1167h295l237 287h-368z" />
<glyph unicode="&#xf4;" horiz-adv-x="1208" d="M61 512q0 150 72.5 274.5t197 195.5t273.5 71t273.5 -71t197 -195.5t72.5 -274.5t-72.5 -274.5t-197 -195.5t-273.5 -71t-273.5 71t-197 195.5t-72.5 274.5zM225 1147l217 307h303l218 -307h-297l-72 113l-72 -113h-297zM369 512q0 -107 67 -174.5t168 -67.5t168.5 67.5 t67.5 174.5t-67.5 174.5t-168.5 67.5t-168 -67.5t-67 -174.5z" />
<glyph unicode="&#xf5;" horiz-adv-x="1208" d="M61 512q0 150 72.5 274.5t197 195.5t273.5 71t273.5 -71t197 -195.5t72.5 -274.5t-72.5 -274.5t-197 -195.5t-273.5 -71t-273.5 71t-197 195.5t-72.5 274.5zM236 1153q0 101 24 173t63.5 107.5t92 46t108.5 -4.5t113 -50q53 -32 70.5 -22t17.5 72h246q0 -101 -24 -173 t-64 -107.5t-92 -46t-108.5 4t-113.5 49.5q-53 32 -70.5 22t-17.5 -71h-245zM369 512q0 -107 67 -174.5t168 -67.5t168.5 67.5t67.5 174.5t-67.5 174.5t-168.5 67.5t-168 -67.5t-67 -174.5z" />
<glyph unicode="&#xf6;" horiz-adv-x="1208" d="M61 512q0 150 72.5 274.5t197 195.5t273.5 71t273.5 -71t197 -195.5t72.5 -274.5t-72.5 -274.5t-197 -195.5t-273.5 -71t-273.5 71t-197 195.5t-72.5 274.5zM256 1280q0 63 45.5 108.5t108.5 45.5t108 -45.5t45 -108.5t-45 -108.5t-108 -45.5t-108.5 45.5t-45.5 108.5z M369 512q0 -107 67 -174.5t168 -67.5t168.5 67.5t67.5 174.5t-67.5 174.5t-168.5 67.5t-168 -67.5t-67 -174.5zM645 1280q0 63 45.5 108.5t108.5 45.5t108 -45.5t45 -108.5t-45 -108.5t-108 -45.5t-108.5 45.5t-45.5 108.5z" />
<glyph unicode="&#xf7;" horiz-adv-x="1146" d="M82 573v287h983v-287h-983zM389 313q0 78 53 131.5t131 53.5t131.5 -53.5t53.5 -131.5t-53.5 -131t-131.5 -53t-131 53t-53 131zM389 1120q0 78 53 131.5t131 53.5t131.5 -53.5t53.5 -131.5t-53.5 -131t-131.5 -53t-131 53t-53 131z" />
<glyph unicode="&#xf8;" horiz-adv-x="1208" d="M61 512q0 150 72.5 274.5t197 195.5t273.5 71q162 0 289 -82l61 73l125 -71l-75 -92q143 -153 143 -369q0 -150 -72.5 -274.5t-197 -195.5t-273.5 -71q-157 0 -289 80l-59 -71l-125 69l76 92q-146 156 -146 371zM369 512q0 -78 34 -133l295 356q-46 19 -94 19 q-101 0 -168 -67.5t-67 -174.5zM512 287q46 -17 92 -17q101 0 168.5 67.5t67.5 174.5q0 70 -33 131z" />
<glyph unicode="&#xf9;" horiz-adv-x="1193" d="M98 395v629h308v-584q0 -91 50 -138.5t128 -47.5q88 0 139 53t51 158v559h307v-1024h-307v96q-42 -58 -118 -91.5t-175 -33.5q-163 0 -273 112.5t-110 311.5zM242 1434h368l164 -287h-295z" />
<glyph unicode="&#xfa;" horiz-adv-x="1193" d="M98 395v629h308v-584q0 -91 50 -138.5t128 -47.5q88 0 139 53t51 158v559h307v-1024h-307v96q-42 -58 -118 -91.5t-175 -33.5q-163 0 -273 112.5t-110 311.5zM406 1147l163 287h369l-238 -287h-294z" />
<glyph unicode="&#xfb;" horiz-adv-x="1193" d="M98 395v629h308v-584q0 -91 50 -138.5t128 -47.5q88 0 139 53t51 158v559h307v-1024h-307v96q-42 -58 -118 -91.5t-175 -33.5q-163 0 -273 112.5t-110 311.5zM211 1126l217 308h303l217 -308h-297l-71 113l-72 -113h-297z" />
<glyph unicode="&#xfc;" horiz-adv-x="1193" d="M98 395v629h308v-584q0 -91 50 -138.5t128 -47.5q88 0 139 53t51 158v559h307v-1024h-307v96q-42 -58 -118 -91.5t-175 -33.5q-163 0 -273 112.5t-110 311.5zM242 1260q0 63 45 108t108 45t108.5 -45t45.5 -108t-45.5 -108.5t-108.5 -45.5t-108 45.5t-45 108.5zM631 1260 q0 63 45 108t108 45t108.5 -45t45.5 -108t-45.5 -108.5t-108.5 -45.5t-108 45.5t-45 108.5z" />
<glyph unicode="&#xfd;" horiz-adv-x="1085" d="M0 1024h338l227 -627l193 627h327l-350 -993q-86 -242 -226 -347t-357 -94v287q107 0 164.5 38t91.5 132zM360 1147l164 287h369l-238 -287h-295z" />
<glyph unicode="&#xfe;" d="M113 -410v1844h307v-506q109 125 305 125q202 0 345.5 -157t143.5 -384t-143.5 -384t-345.5 -157q-196 0 -305 125v-506h-307zM420 512q0 -114 68.5 -182t175.5 -68t175 68t68 182t-68 182t-175 68t-175.5 -68t-68.5 -182z" />
<glyph unicode="&#xff;" horiz-adv-x="1085" d="M0 1024h338l227 -627l193 627h327l-350 -993q-86 -242 -226 -347t-357 -94v287q107 0 164.5 38t91.5 132zM197 1260q0 63 45 108t108 45t108.5 -45t45.5 -108t-45.5 -108.5t-108.5 -45.5t-108 45.5t-45 108.5zM586 1260q0 63 45 108t108 45t108.5 -45t45.5 -108 t-45.5 -108.5t-108.5 -45.5t-108 45.5t-45 108.5z" />
<glyph unicode="&#x152;" horiz-adv-x="1875" d="M61 717q0 156 56 294t152 237t230.5 156.5t286.5 57.5q106 0 209 -28h809v-316h-481v-237h430v-312h-430v-254h492v-315h-820q-106 -29 -209 -29q-203 0 -369.5 98t-261 269t-94.5 379zM389 717q0 -191 110.5 -308.5t286.5 -117.5q127 0 209 31v790q-82 31 -209 31 q-176 0 -286.5 -117.5t-110.5 -308.5z" />
<glyph unicode="&#x153;" horiz-adv-x="1966" d="M61 512q0 150 70 274.5t192.5 195.5t270.5 71q128 0 230.5 -55t166.5 -152q63 98 167 152.5t241 54.5q147 0 263 -70.5t179.5 -194t63.5 -276.5q0 -60 -13 -123h-727q54 -143 236 -143q136 0 207 78l245 -142q-152 -211 -446 -211q-279 0 -416 207q-65 -98 -166.5 -152.5 t-230.5 -54.5q-148 0 -270.5 71t-192.5 195.5t-70 274.5zM369 512q0 -107 67 -174.5t168 -67.5t168.5 67.5t67.5 174.5t-67.5 174.5t-168.5 67.5t-168 -67.5t-67 -174.5zM1159 623h440q-23 82 -80.5 119.5t-132.5 37.5q-176 0 -227 -157z" />
<glyph unicode="&#x178;" horiz-adv-x="1290" d="M0 1434h373l272 -553l273 553h372l-481 -883v-551h-328v551zM297 1669q0 63 45.5 108.5t108.5 45.5t108 -45.5t45 -108.5t-45 -108t-108 -45t-108.5 45t-45.5 108zM686 1669q0 63 45.5 108.5t108.5 45.5t108 -45.5t45 -108.5t-45 -108t-108 -45t-108.5 45t-45.5 108z" />
<glyph unicode="&#x2c6;" horiz-adv-x="819" d="M41 1126l217 308h303l217 -308h-297l-71 113l-72 -113h-297z" />
<glyph unicode="&#x2dc;" horiz-adv-x="817" d="M41 1133q0 101 24 173t63.5 107.5t92 46t108.5 -4.5t113 -50q52 -32 70 -22t18 71h246q0 -101 -24 -173t-63.5 -107.5t-92 -46t-108.5 4.5t-113 50q-53 32 -70.5 22t-17.5 -71h-246z" />
<glyph unicode="&#x2000;" horiz-adv-x="946" />
<glyph unicode="&#x2001;" horiz-adv-x="1893" />
<glyph unicode="&#x2002;" horiz-adv-x="946" />
<glyph unicode="&#x2003;" horiz-adv-x="1893" />
<glyph unicode="&#x2004;" horiz-adv-x="631" />
<glyph unicode="&#x2005;" horiz-adv-x="473" />
<glyph unicode="&#x2006;" horiz-adv-x="315" />
<glyph unicode="&#x2007;" horiz-adv-x="315" />
<glyph unicode="&#x2008;" horiz-adv-x="236" />
<glyph unicode="&#x2009;" horiz-adv-x="378" />
<glyph unicode="&#x200a;" horiz-adv-x="105" />
<glyph unicode="&#x2010;" horiz-adv-x="1024" d="M123 465v295h778v-295h-778z" />
<glyph unicode="&#x2011;" horiz-adv-x="1024" d="M123 465v295h778v-295h-778z" />
<glyph unicode="&#x2012;" horiz-adv-x="1024" d="M123 465v295h778v-295h-778z" />
<glyph unicode="&#x2013;" horiz-adv-x="1310" d="M123 465v295h1065v-295h-1065z" />
<glyph unicode="&#x2014;" horiz-adv-x="1515" d="M123 465v295h1270v-295h-1270z" />
<glyph unicode="&#x2018;" horiz-adv-x="593" d="M92 829l164 605h246l-82 -605h-328z" />
<glyph unicode="&#x2019;" horiz-adv-x="593" d="M92 829l82 605h328l-164 -605h-246z" />
<glyph unicode="&#x201a;" horiz-adv-x="593" d="M92 -287l82 604h328l-164 -604h-246z" />
<glyph unicode="&#x201c;" horiz-adv-x="1003" d="M92 829l164 605h246l-82 -605h-328zM502 829l164 605h245l-82 -605h-327z" />
<glyph unicode="&#x201d;" horiz-adv-x="1003" d="M92 829l82 605h328l-164 -605h-246zM502 829l82 605h327l-163 -605h-246z" />
<glyph unicode="&#x201e;" horiz-adv-x="1003" d="M92 -287l82 604h328l-164 -604h-246zM502 -287l82 604h327l-163 -604h-246z" />
<glyph unicode="&#x2022;" horiz-adv-x="778" d="M82 721q0 126 91 214.5t220 88.5q126 0 214.5 -88.5t88.5 -214.5q0 -129 -88.5 -220t-214.5 -91q-129 0 -220 91t-91 220z" />
<glyph unicode="&#x2026;" horiz-adv-x="1556" d="M92 166q0 79 57.5 136.5t137.5 57.5q79 0 136.5 -57t57.5 -137t-57.5 -137.5t-136.5 -57.5t-137 57.5t-58 137.5zM584 166q0 80 57 137t137 57t137.5 -57.5t57.5 -136.5q0 -80 -57.5 -137.5t-137.5 -57.5q-79 0 -136.5 57.5t-57.5 137.5zM1075 166q0 79 57.5 136.5 t137.5 57.5t137 -57t57 -137t-57.5 -137.5t-136.5 -57.5q-80 0 -137.5 57.5t-57.5 137.5z" />
<glyph unicode="&#x202f;" horiz-adv-x="378" />
<glyph unicode="&#x2039;" horiz-adv-x="741" d="M123 633l225 389h270l-225 -389l225 -389h-270z" />
<glyph unicode="&#x203a;" horiz-adv-x="741" d="M123 244l225 389l-225 389h270l225 -389l-225 -389h-270z" />
<glyph unicode="&#x205f;" horiz-adv-x="473" />
<glyph unicode="&#x20ac;" horiz-adv-x="1261" d="M31 520v172h123v25v41h-123v172h141q45 248 192 390t373 142q157 0 277.5 -78t195.5 -227l-272 -158q-39 76 -86 110t-115 34q-179 0 -233 -213h387v-172h-410v-41v-25h410v-172h-391q50 -229 237 -229q73 0 122 38t89 122l273 -156q-73 -158 -197 -241t-287 -83 q-231 0 -379 147t-188 402h-139z" />
<glyph unicode="&#x2122;" horiz-adv-x="974" d="M61 1307v127h363v-127h-113v-283h-137v283h-113zM463 1024v410h131l94 -142l94 142h131v-410h-131v205l-88 -131h-12l-88 131v-205h-131z" />
<glyph unicode="&#x25fc;" horiz-adv-x="1024" d="M0 0v1024h1024v-1024h-1024z" />
<glyph unicode="&#xfb03;" horiz-adv-x="1740" d="M41 729v295h137q0 221 124.5 337t373.5 101v-295q-191 17 -191 -143h267v20q0 439 497 439q114 0 256 -29v-283q-156 17 -256 17q-95 0 -142.5 -30t-47.5 -114v-20h569v-1024h-307v729h-262v-729h-307v729h-267v-729h-307v729h-137z" />
<glyph unicode="&#xfb04;" horiz-adv-x="1740" d="M41 729v295h137q0 221 124.5 337t373.5 101v-295q-191 17 -191 -143h267v20q0 439 497 439q163 0 379 -49v-1434h-307v1214q-37 3 -72 3q-89 0 -139.5 -43t-50.5 -130v-20h149v-295h-149v-729h-307v729h-267v-729h-307v729h-137z" />
</font>
</defs>
</svg>
